Neil Young / Greatest Hits

electrobe

Administrator / Owner
Staff member
ADMIN
cover.jpg

Neil Young / Greatest Hits
--------------------------------------------------------------------------------

DR Peak RMS Duration Track
--------------------------------------------------------------------------------
DR10 -0.12 dB -11.64 dB 9:20 01-Down By The River
DR10 -0.14 dB -11.70 dB 10:06 02-Cowgirl In The Sand
DR9 -1.02 dB -11.92 dB 3:00 03-Cinnamon Girl
DR11 -2.90 dB -17.83 dB 3:40 04-Helpless
DR10 -3.23 dB -15.72 dB 3:46 05-After The Gold Rush
DR12 -0.70 dB -15.52 dB 3:08 06-Only Love Can Break Your Heart
DR10 -0.17 dB -12.18 dB 5:30 07-Southern Man
DR10 -0.27 dB -12.38 dB 3:01 08-Ohio
DR13 -2.16 dB -19.46 dB 2:03 09-The Needle And The Damage Done
DR11 -1.13 dB -17.05 dB 3:22 10-Old Man
DR12 -2.13 dB -16.57 dB 3:07 11-Heart Of Gold
DR11 0.00 dB -11.62 dB 8:17 12-Like A Hurricane
DR13 -0.68 dB -17.38 dB 3:04 13-Comes A Time
DR12 -1.41 dB -15.15 dB 5:11 14-Hey Hey, My My (Into The Black)
DR12 0.00 dB -13.83 dB 4:40 15-Rockin' In The Free World
DR13 0.00 dB -17.12 dB 4:57 16-Harvest Moon
DR13 0.00 dB -14.85 dB 3:46 17-The Loner
DR10 -4.75 dB -17.22 dB 5:46 18-Sugar Mountain
--------------------------------------------------------------------------------
Code:
https://rapidgator.net/file/426a8b6bbb6a0f104709358ca08d52ff/Neil_Young_-_Greatest_Hits_(2004)_(24Bit-44kHz)_vtwin88cube.rar.html
 

Top